Bouquet TV My.t Maurice / Orange Maurice

Pour discuter de tout ce qui concerne la TV d'Orange

Bouquet TV My.t Maurice / Orange Maurice

Messagepar julien2107 » 05 Jan 2015, 23:49

Salut,
Récemment, Orange a fait tout ses abonnes changer de décodeur. On a désormais le ZTE ZXV10 b700 (V2A).
Bien que les chaînes de la TNT (gratuite) s'ouvrent sans problèmes avec VLC, toutefois, les autres sont brouillées.
Le son est parfois perceptible mais l'image demeure brouillée. S'agit-il de cryptage?, en dépit du fait que ce décodeur n'utilise pas de carte comme l'ancien sagem.
J'ai vu dans les information de codecs de vlc que certaines de ces chaines viennent de viaccess ou globecast/Harmonic.
il y aurait-il un moyen de les visionner sur pc?
Fichiers joints
Capture.JPG
codec utilisé
Capture.JPG (32.57 Kio) Vu 1244 fois
julien2107
 
Messages: 3
Inscription: 15 Mar 2014, 13:33

Re: Bouquet TV My.t Maurice / Orange Maurice

Messagepar julien2107 » 05 Avr 2015, 09:57

Plus de détail sur le flux
General
ID : 0 (0x0)
Complete name : OCS Max
Format : MPEG-TS
File size : 29.2 MiB
Duration : 1mn 23s
Overall bit rate mode : Variable
Overall bit rate : 2 903 Kbps

Video
ID : 256 (0x100)
Menu ID : 1 (0x1)
Format : AVC
Format/Info : Advanced Video Codec
Format profile : Main@L3.0
Format settings, CABAC : Yes
Format settings, ReFrames : 5 frames
Codec ID : 27
Duration : 1mn 23s
Bit rate : 2 371 Kbps
Maximum bit rate : 2 200 Kbps
Width : 720 pixels
Height : 576 pixels
Display aspect ratio : 16:9
Frame rate : 25.000 fps
Standard : PAL
Color space : YUV
Chroma subsampling : 4:2:0
Bit depth : 8 bits
Scan type : MBAFF
Scan order : Top Field First
Bits/(Pixel*Frame) : 0.229
Stream size : 23.7 MiB (81%)
Color range : Limited

Audio
ID : 257 (0x101)
Menu ID : 1 (0x1)
Format : AC-3
Format/Info : Audio Coding 3
Format profile : Dolby Digital
Mode extension : CM (complete main)
Format settings, Endianness : Big
Codec ID : 6
Duration : 1mn 23s
Bit rate mode : Constant
Bit rate : 384 Kbps
Channel(s) : 2 channels
Channel positions : Front: L R
Sampling rate : 48.0 KHz
Bit depth : 16 bits
Compression mode : Lossy
Delay relative to video : -1s 818ms
Stream size : 3.83 MiB (13%)
Language : French

Menu
ID : 480 (0x1E0)
Menu ID : 1 (0x1)
Duration : 1mn 23s
List : 256 (0x100) (AVC) / 257 (0x101) (AC-3, French)
Language : / French
Service name : OCS MAX
Service type : digital television

J'ai remarqué que les flux en High@L3.0 jouent sans problèmes alors que ceux en main@L3.0 sont pixelisés
julien2107
 
Messages: 3
Inscription: 15 Mar 2014, 13:33

Re: Bouquet TV My.t Maurice / Orange Maurice

Messagepar julien2107 » 23 Sep 2015, 15:04

Ben il y a du nouveau, j'ai découvert qu'ils utilisent un cryptage VCAS, en gros c'est du décodage sans carte, le décodeur télécharge les clés au démarrage,donc Viaccess c'est fini, maintenant c'est Verimatrix.
julien2107
 
Messages: 3
Inscription: 15 Mar 2014, 13:33

Re: Bouquet TV My.t Maurice / Orange Maurice

Messagepar trixtan021 » 08 Déc 2018, 21:46

julien2107 a écrit:Ben il y a du nouveau, j'ai découvert qu'ils expert SEO Paris utilisent un cryptage VCAS, en gros c'est du décodage sans carte, le décodeur télécharge les clés au démarrage,donc Viaccess c'est fini, maintenant c'est Verimatrix.

Bonjour,
Moi je pense que l'offre est assez raisonnable mais il pourrait aussi faire quelques efforts pour améliorer leur SAV!
Merci!
trixtan021
 
Messages: 1
Inscription: 08 Déc 2018, 19:48


Retourner vers La TV Orange

Qui est en ligne

Utilisateurs parcourant ce forum: Aucun utilisateur enregistré et 1 invité

cron